<?xml version="1.0" standalone="no"?>
<!DOCTYPE svg PUBLIC "-//W3C//DTD SVG 1.1//EN" "http://www.w3.org/Graphics/SVG/1.1/DTD/svg11.dtd" >
<svg>
<metadata>
Created by FontForge 20090914 at Fri Feb 24 02:58:10 2012
 By root
Copyright BLackX 2008
</metadata>
<defs>
<font id="LCDDot" horiz-adv-x="742" >
  <font-face 
    font-family="LCDDot"
    font-weight="400"
    font-stretch="normal"
    units-per-em="1024"
    panose-1="0 0 4 0 0 0 0 0 0 0"
    ascent="819"
    descent="-205"
    x-height="755"
    cap-height="1011"
    bbox="0 -115 1000 1024"
    underline-thickness="51"
    underline-position="127"
    unicode-range="U+000D-U+201D"
  />
<missing-glyph horiz-adv-x="1243" 
d="M500 142v159h-159v-159h159zM659 328v159h-318v-159h318zM500 513v159h-159v-159h159zM659 699v158h-159q-66 0 -112 -46q-47 -47 -47 -112h318zM0 0v1000h1000v-1000h-1000z" />
    <glyph glyph-name=".notdef" horiz-adv-x="1243" 
d="M500 142v159h-159v-159h159zM659 328v159h-318v-159h318zM500 513v159h-159v-159h159zM659 699v158h-159q-66 0 -112 -46q-47 -47 -47 -112h318zM0 0v1000h1000v-1000h-1000z" />
    <glyph glyph-name="glyph1" horiz-adv-x="128" 
 />
    <glyph glyph-name="glyph1" horiz-adv-x="128" 
 />
    <glyph glyph-name="uni000D" unicode="&#xd;" horiz-adv-x="256" 
 />
    <glyph glyph-name="space" unicode=" " horiz-adv-x="256" 
 />
    <glyph glyph-name="exclam" unicode="!" horiz-adv-x="230" 
d="M0 140v103h103v-103h-103zM0 396v103h103v-103h-103zM0 524v103h103v-103h-103zM0 652v103h103v-103h-103zM0 780v103h103v-103h-103zM0 908v103h103v-103h-103z" />
    <glyph glyph-name="quotedbl" unicode="&#x22;" horiz-adv-x="486" 
d="M0 780v103h103v-103h-103zM256 780v103h103v-103h-103zM0 908v103h103v-103h-103zM256 908v103h103v-103h-103z" />
    <glyph glyph-name="numbersign" unicode="#" 
d="M128 268v103h103v-103h-103zM384 268v103h103v-103h-103zM0 396v103h103v-103h-103zM128 396v103h103v-103h-103zM256 396v103h103v-103h-103zM384 396v103h103v-103h-103zM512 396v103h103v-103h-103zM128 524v103h103v-103h-103zM384 524v103h103v-103h-103zM0 652v103
h103v-103h-103zM128 652v103h103v-103h-103zM256 652v103h103v-103h-103zM384 652v103h103v-103h-103zM512 652v103h103v-103h-103zM128 780v103h103v-103h-103zM384 780v103h103v-103h-103z" />
    <glyph glyph-name="dollar" unicode="$" 
d="M256 140v103h103v-103h-103zM0 268v103h103v-103h-103zM128 268v103h103v-103h-103zM256 268v103h103v-103h-103zM384 268v103h103v-103h-103zM256 396v103h103v-103h-103zM512 396v103h103v-103h-103zM128 524v103h103v-103h-103zM256 524v103h103v-103h-103zM384 524
v103h103v-103h-103zM0 652v103h103v-103h-103zM256 652v103h103v-103h-103zM128 780v103h103v-103h-103zM256 780v103h103v-103h-103zM384 780v103h103v-103h-103zM512 780v103h103v-103h-103zM256 908v103h103v-103h-103z" />
    <glyph glyph-name="percent" unicode="%" 
d="M0 140v103h103v-103h-103zM384 140v103h103v-103h-103zM512 140v103h103v-103h-103zM0 268v103h103v-103h-103zM384 268v103h103v-103h-103zM512 268v103h103v-103h-103zM128 396v103h103v-103h-103zM256 524v103h103v-103h-103zM384 652v103h103v-103h-103zM0 780v103
h103v-103h-103zM128 780v103h103v-103h-103zM512 780v103h103v-103h-103zM0 908v103h103v-103h-103zM128 908v103h103v-103h-103zM512 908v103h103v-103h-103z" />
    <glyph glyph-name="ampersand" unicode="&#x26;" 
d="M128 140v103h103v-103h-103zM256 140v103h103v-103h-103zM512 140v103h103v-103h-103zM0 268v103h103v-103h-103zM384 268v103h103v-103h-103zM0 396v103h103v-103h-103zM256 396v103h103v-103h-103zM512 396v103h103v-103h-103zM128 524v103h103v-103h-103zM0 652v103
h103v-103h-103zM256 652v103h103v-103h-103zM0 780v103h103v-103h-103zM384 780v103h103v-103h-103zM128 908v103h103v-103h-103zM256 908v103h103v-103h-103z" />
    <glyph glyph-name="quotesingle" unicode="'" horiz-adv-x="230" 
d="M0 780v103h103v-103h-103zM0 908v103h103v-103h-103z" />
    <glyph glyph-name="parenleft" unicode="(" horiz-adv-x="358" 
d="M128 140v103h103v-103h-103zM0 268v103h103v-103h-103zM0 396v103h103v-103h-103zM0 524v103h103v-103h-103zM0 652v103h103v-103h-103zM0 780v103h103v-103h-103zM128 908v103h103v-103h-103z" />
    <glyph glyph-name="parenright" unicode=")" horiz-adv-x="358" 
d="M0 140v103h103v-103h-103zM128 268v103h103v-103h-103zM128 396v103h103v-103h-103zM128 524v103h103v-103h-103zM128 652v103h103v-103h-103zM128 780v103h103v-103h-103zM0 908v103h103v-103h-103z" />
    <glyph glyph-name="asterisk" unicode="*" 
d="M0 268v103h103v-103h-103zM256 268v103h103v-103h-103zM512 268v103h103v-103h-103zM128 396v103h103v-103h-103zM256 396v103h103v-103h-103zM384 396v103h103v-103h-103zM0 524v103h103v-103h-103zM128 524v103h103v-103h-103zM256 524v103h103v-103h-103zM384 524v103
h103v-103h-103zM512 524v103h103v-103h-103zM128 652v103h103v-103h-103zM256 652v103h103v-103h-103zM384 652v103h103v-103h-103zM0 780v103h103v-103h-103zM256 780v103h103v-103h-103zM512 780v103h103v-103h-103z" />
    <glyph glyph-name="plus" unicode="+" horiz-adv-x="486" 
d="M128 396v103h103v-103h-103zM0 524v103h103v-103h-103zM128 524v103h103v-103h-103zM256 524v103h103v-103h-103zM128 652v103h103v-103h-103z" />
    <glyph glyph-name="comma" unicode="," horiz-adv-x="230" 
d="M0 12v103h103v-103h-103zM0 140v103h103v-103h-103z" />
    <glyph glyph-name="hyphen" unicode="-" horiz-adv-x="486" 
d="M0 524v103h103v-103h-103zM128 524v103h103v-103h-103zM256 524v103h103v-103h-103z" />
    <glyph glyph-name="period" unicode="." horiz-adv-x="230" 
d="M0 140v103h103v-103h-103z" />
    <glyph glyph-name="slash" unicode="/" 
d="M0 140v103h103v-103h-103zM0 268v103h103v-103h-103zM128 396v103h103v-103h-103zM256 524v103h103v-103h-103zM384 652v103h103v-103h-103zM512 780v103h103v-103h-103zM512 908v103h103v-103h-103z" />
    <glyph glyph-name="zero" unicode="0" 
d="M128 140v103h103v-103h-103zM256 140v103h103v-103h-103zM384 140v103h103v-103h-103zM0 268v103h103v-103h-103zM512 268v103h103v-103h-103zM0 396v103h103v-103h-103zM128 396v103h103v-103h-103zM512 396v103h103v-103h-103zM0 524v103h103v-103h-103zM256 524v103
h103v-103h-103zM512 524v103h103v-103h-103zM0 652v103h103v-103h-103zM384 652v103h103v-103h-103zM512 652v103h103v-103h-103zM0 780v103h103v-103h-103zM512 780v103h103v-103h-103zM128 908v103h103v-103h-103zM256 908v103h103v-103h-103zM384 908v103h103v-103h-103z
" />
    <glyph glyph-name="one" unicode="1" horiz-adv-x="486" 
d="M0 140v103h103v-103h-103zM128 140v103h103v-103h-103zM256 140v103h103v-103h-103zM128 268v103h103v-103h-103zM128 396v103h103v-103h-103zM128 524v103h103v-103h-103zM128 652v103h103v-103h-103zM0 780v103h103v-103h-103zM128 780v103h103v-103h-103zM128 908v103
h103v-103h-103z" />
    <glyph glyph-name="two" unicode="2" 
d="M0 140v103h103v-103h-103zM128 140v103h103v-103h-103zM256 140v103h103v-103h-103zM384 140v103h103v-103h-103zM512 140v103h103v-103h-103zM0 268v103h103v-103h-103zM128 396v103h103v-103h-103zM256 524v103h103v-103h-103zM384 524v103h103v-103h-103zM512 652v103
h103v-103h-103zM0 780v103h103v-103h-103zM512 780v103h103v-103h-103zM128 908v103h103v-103h-103zM256 908v103h103v-103h-103zM384 908v103h103v-103h-103z" />
    <glyph glyph-name="three" unicode="3" 
d="M128 140v103h103v-103h-103zM256 140v103h103v-103h-103zM384 140v103h103v-103h-103zM0 268v103h103v-103h-103zM512 268v103h103v-103h-103zM512 396v103h103v-103h-103zM256 524v103h103v-103h-103zM384 524v103h103v-103h-103zM512 652v103h103v-103h-103zM0 780v103
h103v-103h-103zM512 780v103h103v-103h-103zM128 908v103h103v-103h-103zM256 908v103h103v-103h-103zM384 908v103h103v-103h-103z" />
    <glyph glyph-name="four" unicode="4" 
d="M384 140v103h103v-103h-103zM384 268v103h103v-103h-103zM0 396v103h103v-103h-103zM128 396v103h103v-103h-103zM256 396v103h103v-103h-103zM384 396v103h103v-103h-103zM512 396v103h103v-103h-103zM0 524v103h103v-103h-103zM384 524v103h103v-103h-103zM128 652v103
h103v-103h-103zM384 652v103h103v-103h-103zM256 780v103h103v-103h-103zM384 780v103h103v-103h-103zM384 908v103h103v-103h-103z" />
    <glyph glyph-name="five" unicode="5" 
d="M128 140v103h103v-103h-103zM256 140v103h103v-103h-103zM384 140v103h103v-103h-103zM0 268v103h103v-103h-103zM512 268v103h103v-103h-103zM512 396v103h103v-103h-103zM512 524v103h103v-103h-103zM0 652v103h103v-103h-103zM128 652v103h103v-103h-103zM256 652v103
h103v-103h-103zM384 652v103h103v-103h-103zM0 780v103h103v-103h-103zM0 908v103h103v-103h-103zM128 908v103h103v-103h-103zM256 908v103h103v-103h-103zM384 908v103h103v-103h-103zM512 908v103h103v-103h-103z" />
    <glyph glyph-name="six" unicode="6" 
d="M128 140v103h103v-103h-103zM256 140v103h103v-103h-103zM384 140v103h103v-103h-103zM0 268v103h103v-103h-103zM512 268v103h103v-103h-103zM0 396v103h103v-103h-103zM512 396v103h103v-103h-103zM0 524v103h103v-103h-103zM128 524v103h103v-103h-103zM256 524v103
h103v-103h-103zM384 524v103h103v-103h-103zM0 652v103h103v-103h-103zM0 780v103h103v-103h-103zM512 780v103h103v-103h-103zM128 908v103h103v-103h-103zM256 908v103h103v-103h-103zM384 908v103h103v-103h-103z" />
    <glyph glyph-name="seven" unicode="7" 
d="M256 140v103h103v-103h-103zM256 268v103h103v-103h-103zM256 396v103h103v-103h-103zM256 524v103h103v-103h-103zM384 652v103h103v-103h-103zM512 780v103h103v-103h-103zM0 908v103h103v-103h-103zM128 908v103h103v-103h-103zM256 908v103h103v-103h-103zM384 908
v103h103v-103h-103zM512 908v103h103v-103h-103z" />
    <glyph glyph-name="eight" unicode="8" 
d="M128 140v103h103v-103h-103zM256 140v103h103v-103h-103zM384 140v103h103v-103h-103zM0 268v103h103v-103h-103zM512 268v103h103v-103h-103zM0 396v103h103v-103h-103zM512 396v103h103v-103h-103zM128 524v103h103v-103h-103zM256 524v103h103v-103h-103zM384 524v103
h103v-103h-103zM0 652v103h103v-103h-103zM512 652v103h103v-103h-103zM0 780v103h103v-103h-103zM512 780v103h103v-103h-103zM128 908v103h103v-103h-103zM256 908v103h103v-103h-103zM384 908v103h103v-103h-103z" />
    <glyph glyph-name="nine" unicode="9" 
d="M128 140v103h103v-103h-103zM256 140v103h103v-103h-103zM384 140v103h103v-103h-103zM0 268v103h103v-103h-103zM512 268v103h103v-103h-103zM512 396v103h103v-103h-103zM128 524v103h103v-103h-103zM256 524v103h103v-103h-103zM384 524v103h103v-103h-103zM512 524
v103h103v-103h-103zM0 652v103h103v-103h-103zM512 652v103h103v-103h-103zM0 780v103h103v-103h-103zM512 780v103h103v-103h-103zM128 908v103h103v-103h-103zM256 908v103h103v-103h-103zM384 908v103h103v-103h-103z" />
    <glyph glyph-name="colon" unicode=":" horiz-adv-x="230" 
d="M0 140v103h103v-103h-103zM0 652v103h103v-103h-103z" />
    <glyph glyph-name="semicolon" unicode=";" horiz-adv-x="230" 
d="M0 12v103h103v-103h-103zM0 140v103h103v-103h-103zM0 652v103h103v-103h-103z" />
    <glyph glyph-name="less" unicode="&#x3c;" horiz-adv-x="486" 
d="M256 268v103h103v-103h-103zM128 396v103h103v-103h-103zM0 524v103h103v-103h-103zM128 652v103h103v-103h-103zM256 780v103h103v-103h-103z" />
    <glyph glyph-name="equal" unicode="=" horiz-adv-x="486" 
d="M0 396v103h103v-103h-103zM128 396v103h103v-103h-103zM256 396v103h103v-103h-103zM0 652v103h103v-103h-103zM128 652v103h103v-103h-103zM256 652v103h103v-103h-103z" />
    <glyph glyph-name="greater" unicode="&#x3e;" horiz-adv-x="486" 
d="M0 268v103h103v-103h-103zM128 396v103h103v-103h-103zM256 524v103h103v-103h-103zM128 652v103h103v-103h-103zM0 780v103h103v-103h-103z" />
    <glyph glyph-name="question" unicode="?" 
d="M256 140v103h103v-103h-103zM256 396v103h103v-103h-103zM384 524v103h103v-103h-103zM512 652v103h103v-103h-103zM0 780v103h103v-103h-103zM512 780v103h103v-103h-103zM128 908v103h103v-103h-103zM256 908v103h103v-103h-103zM384 908v103h103v-103h-103z" />
    <glyph glyph-name="at" unicode="@" horiz-adv-x="998" 
d="M128 140v103h103v-103h-103zM256 140v103h103v-103h-103zM384 140v103h103v-103h-103zM512 140v103h103v-103h-103zM640 140v103h103v-103h-103zM0 268v103h103v-103h-103zM0 396v103h103v-103h-103zM256 396v103h103v-103h-103zM384 396v103h103v-103h-103zM640 396v103
h103v-103h-103zM0 524v103h103v-103h-103zM256 524v103h103v-103h-103zM512 524v103h103v-103h-103zM768 524v103h103v-103h-103zM0 652v103h103v-103h-103zM384 652v103h103v-103h-103zM512 652v103h103v-103h-103zM768 652v103h103v-103h-103zM0 780v103h103v-103h-103z
M768 780v103h103v-103h-103zM128 908v103h103v-103h-103zM256 908v103h103v-103h-103zM384 908v103h103v-103h-103zM512 908v103h103v-103h-103zM640 908v103h103v-103h-103z" />
    <glyph glyph-name="A" unicode="A" 
d="M0 140v103h103v-103h-103zM512 140v103h103v-103h-103zM0 268v103h103v-103h-103zM512 268v103h103v-103h-103zM0 396v103h103v-103h-103zM128 396v103h103v-103h-103zM256 396v103h103v-103h-103zM384 396v103h103v-103h-103zM512 396v103h103v-103h-103zM0 524v103h103
v-103h-103zM512 524v103h103v-103h-103zM0 652v103h103v-103h-103zM512 652v103h103v-103h-103zM128 780v103h103v-103h-103zM384 780v103h103v-103h-103zM256 908v103h103v-103h-103z" />
    <glyph glyph-name="B" unicode="B" 
d="M0 140v103h103v-103h-103zM128 140v103h103v-103h-103zM256 140v103h103v-103h-103zM384 140v103h103v-103h-103zM0 268v103h103v-103h-103zM512 268v103h103v-103h-103zM0 396v103h103v-103h-103zM512 396v103h103v-103h-103zM0 524v103h103v-103h-103zM128 524v103h103
v-103h-103zM256 524v103h103v-103h-103zM384 524v103h103v-103h-103zM0 652v103h103v-103h-103zM512 652v103h103v-103h-103zM0 780v103h103v-103h-103zM512 780v103h103v-103h-103zM0 908v103h103v-103h-103zM128 908v103h103v-103h-103zM256 908v103h103v-103h-103z
M384 908v103h103v-103h-103z" />
    <glyph glyph-name="C" unicode="C" 
d="M128 140v103h103v-103h-103zM256 140v103h103v-103h-103zM384 140v103h103v-103h-103zM0 268v103h103v-103h-103zM512 268v103h103v-103h-103zM0 396v103h103v-103h-103zM0 524v103h103v-103h-103zM0 652v103h103v-103h-103zM0 780v103h103v-103h-103zM512 780v103h103
v-103h-103zM128 908v103h103v-103h-103zM256 908v103h103v-103h-103zM384 908v103h103v-103h-103z" />
    <glyph glyph-name="D" unicode="D" 
d="M0 140v103h103v-103h-103zM128 140v103h103v-103h-103zM256 140v103h103v-103h-103zM384 140v103h103v-103h-103zM0 268v103h103v-103h-103zM512 268v103h103v-103h-103zM0 396v103h103v-103h-103zM512 396v103h103v-103h-103zM0 524v103h103v-103h-103zM512 524v103h103
v-103h-103zM0 652v103h103v-103h-103zM512 652v103h103v-103h-103zM0 780v103h103v-103h-103zM512 780v103h103v-103h-103zM0 908v103h103v-103h-103zM128 908v103h103v-103h-103zM256 908v103h103v-103h-103zM384 908v103h103v-103h-103z" />
    <glyph glyph-name="E" unicode="E" 
d="M0 140v103h103v-103h-103zM128 140v103h103v-103h-103zM256 140v103h103v-103h-103zM384 140v103h103v-103h-103zM512 140v103h103v-103h-103zM0 268v103h103v-103h-103zM0 396v103h103v-103h-103zM0 524v103h103v-103h-103zM128 524v103h103v-103h-103zM256 524v103h103
v-103h-103zM384 524v103h103v-103h-103zM0 652v103h103v-103h-103zM0 780v103h103v-103h-103zM0 908v103h103v-103h-103zM128 908v103h103v-103h-103zM256 908v103h103v-103h-103zM384 908v103h103v-103h-103zM512 908v103h103v-103h-103z" />
    <glyph glyph-name="F" unicode="F" 
d="M0 140v103h103v-103h-103zM0 268v103h103v-103h-103zM0 396v103h103v-103h-103zM0 524v103h103v-103h-103zM128 524v103h103v-103h-103zM256 524v103h103v-103h-103zM384 524v103h103v-103h-103zM0 652v103h103v-103h-103zM0 780v103h103v-103h-103zM0 908v103h103v-103
h-103zM128 908v103h103v-103h-103zM256 908v103h103v-103h-103zM384 908v103h103v-103h-103zM512 908v103h103v-103h-103z" />
    <glyph glyph-name="G" unicode="G" 
d="M128 140v103h103v-103h-103zM256 140v103h103v-103h-103zM512 140v103h103v-103h-103zM0 268v103h103v-103h-103zM384 268v103h103v-103h-103zM512 268v103h103v-103h-103zM0 396v103h103v-103h-103zM512 396v103h103v-103h-103zM0 524v103h103v-103h-103zM256 524v103
h103v-103h-103zM384 524v103h103v-103h-103zM512 524v103h103v-103h-103zM0 652v103h103v-103h-103zM0 780v103h103v-103h-103zM512 780v103h103v-103h-103zM128 908v103h103v-103h-103zM256 908v103h103v-103h-103zM384 908v103h103v-103h-103z" />
    <glyph glyph-name="H" unicode="H" 
d="M0 140v103h103v-103h-103zM512 140v103h103v-103h-103zM0 268v103h103v-103h-103zM512 268v103h103v-103h-103zM0 396v103h103v-103h-103zM512 396v103h103v-103h-103zM0 524v103h103v-103h-103zM128 524v103h103v-103h-103zM256 524v103h103v-103h-103zM384 524v103h103
v-103h-103zM512 524v103h103v-103h-103zM0 652v103h103v-103h-103zM512 652v103h103v-103h-103zM0 780v103h103v-103h-103zM512 780v103h103v-103h-103zM0 908v103h103v-103h-103zM512 908v103h103v-103h-103z" />
    <glyph glyph-name="I" unicode="I" horiz-adv-x="486" 
d="M0 140v103h103v-103h-103zM128 140v103h103v-103h-103zM256 140v103h103v-103h-103zM128 268v103h103v-103h-103zM128 396v103h103v-103h-103zM128 524v103h103v-103h-103zM128 652v103h103v-103h-103zM128 780v103h103v-103h-103zM0 908v103h103v-103h-103zM128 908v103
h103v-103h-103zM256 908v103h103v-103h-103z" />
    <glyph glyph-name="J" unicode="J" 
d="M128 140v103h103v-103h-103zM256 140v103h103v-103h-103zM384 140v103h103v-103h-103zM0 268v103h103v-103h-103zM512 268v103h103v-103h-103zM512 396v103h103v-103h-103zM512 524v103h103v-103h-103zM512 652v103h103v-103h-103zM512 780v103h103v-103h-103zM512 908
v103h103v-103h-103z" />
    <glyph glyph-name="K" unicode="K" 
d="M0 140v103h103v-103h-103zM512 140v103h103v-103h-103zM0 268v103h103v-103h-103zM512 268v103h103v-103h-103zM0 396v103h103v-103h-103zM384 396v103h103v-103h-103zM0 524v103h103v-103h-103zM128 524v103h103v-103h-103zM256 524v103h103v-103h-103zM0 652v103h103
v-103h-103zM384 652v103h103v-103h-103zM0 780v103h103v-103h-103zM512 780v103h103v-103h-103zM0 908v103h103v-103h-103zM512 908v103h103v-103h-103z" />
    <glyph glyph-name="L" unicode="L" 
d="M0 140v103h103v-103h-103zM128 140v103h103v-103h-103zM256 140v103h103v-103h-103zM384 140v103h103v-103h-103zM512 140v103h103v-103h-103zM0 268v103h103v-103h-103zM0 396v103h103v-103h-103zM0 524v103h103v-103h-103zM0 652v103h103v-103h-103zM0 780v103h103
v-103h-103zM0 908v103h103v-103h-103z" />
    <glyph glyph-name="M" unicode="M" 
d="M0 140v103h103v-103h-103zM512 140v103h103v-103h-103zM0 268v103h103v-103h-103zM512 268v103h103v-103h-103zM0 396v103h103v-103h-103zM512 396v103h103v-103h-103zM0 524v103h103v-103h-103zM256 524v103h103v-103h-103zM512 524v103h103v-103h-103zM0 652v103h103
v-103h-103zM256 652v103h103v-103h-103zM512 652v103h103v-103h-103zM0 780v103h103v-103h-103zM128 780v103h103v-103h-103zM384 780v103h103v-103h-103zM512 780v103h103v-103h-103zM0 908v103h103v-103h-103zM512 908v103h103v-103h-103z" />
    <glyph glyph-name="N" unicode="N" 
d="M0 140v103h103v-103h-103zM512 140v103h103v-103h-103zM0 268v103h103v-103h-103zM512 268v103h103v-103h-103zM0 396v103h103v-103h-103zM512 396v103h103v-103h-103zM0 524v103h103v-103h-103zM384 524v103h103v-103h-103zM512 524v103h103v-103h-103zM0 652v103h103
v-103h-103zM256 652v103h103v-103h-103zM512 652v103h103v-103h-103zM0 780v103h103v-103h-103zM128 780v103h103v-103h-103zM512 780v103h103v-103h-103zM0 908v103h103v-103h-103zM512 908v103h103v-103h-103z" />
    <glyph glyph-name="O" unicode="O" 
d="M128 140v103h103v-103h-103zM256 140v103h103v-103h-103zM384 140v103h103v-103h-103zM0 268v103h103v-103h-103zM512 268v103h103v-103h-103zM0 396v103h103v-103h-103zM512 396v103h103v-103h-103zM0 524v103h103v-103h-103zM512 524v103h103v-103h-103zM0 652v103h103
v-103h-103zM512 652v103h103v-103h-103zM0 780v103h103v-103h-103zM512 780v103h103v-103h-103zM128 908v103h103v-103h-103zM256 908v103h103v-103h-103zM384 908v103h103v-103h-103z" />
    <glyph glyph-name="P" unicode="P" 
d="M0 140v103h103v-103h-103zM0 268v103h103v-103h-103zM0 396v103h103v-103h-103zM0 524v103h103v-103h-103zM128 524v103h103v-103h-103zM256 524v103h103v-103h-103zM384 524v103h103v-103h-103zM0 652v103h103v-103h-103zM512 652v103h103v-103h-103zM0 780v103h103
v-103h-103zM512 780v103h103v-103h-103zM0 908v103h103v-103h-103zM128 908v103h103v-103h-103zM256 908v103h103v-103h-103zM384 908v103h103v-103h-103z" />
    <glyph glyph-name="Q" unicode="Q" 
d="M512 12v103h103v-103h-103zM128 140v103h103v-103h-103zM256 140v103h103v-103h-103zM384 140v103h103v-103h-103zM0 268v103h103v-103h-103zM512 268v103h103v-103h-103zM0 396v103h103v-103h-103zM512 396v103h103v-103h-103zM0 524v103h103v-103h-103zM512 524v103
h103v-103h-103zM0 652v103h103v-103h-103zM512 652v103h103v-103h-103zM0 780v103h103v-103h-103zM512 780v103h103v-103h-103zM128 908v103h103v-103h-103zM256 908v103h103v-103h-103zM384 908v103h103v-103h-103z" />
    <glyph glyph-name="R" unicode="R" 
d="M0 140v103h103v-103h-103zM512 140v103h103v-103h-103zM0 268v103h103v-103h-103zM512 268v103h103v-103h-103zM0 396v103h103v-103h-103zM512 396v103h103v-103h-103zM0 524v103h103v-103h-103zM128 524v103h103v-103h-103zM256 524v103h103v-103h-103zM384 524v103h103
v-103h-103zM0 652v103h103v-103h-103zM512 652v103h103v-103h-103zM0 780v103h103v-103h-103zM512 780v103h103v-103h-103zM0 908v103h103v-103h-103zM128 908v103h103v-103h-103zM256 908v103h103v-103h-103zM384 908v103h103v-103h-103z" />
    <glyph glyph-name="S" unicode="S" 
d="M128 140v103h103v-103h-103zM256 140v103h103v-103h-103zM384 140v103h103v-103h-103zM0 268v103h103v-103h-103zM512 268v103h103v-103h-103zM512 396v103h103v-103h-103zM128 524v103h103v-103h-103zM256 524v103h103v-103h-103zM384 524v103h103v-103h-103zM0 652v103
h103v-103h-103zM0 780v103h103v-103h-103zM512 780v103h103v-103h-103zM128 908v103h103v-103h-103zM256 908v103h103v-103h-103zM384 908v103h103v-103h-103z" />
    <glyph glyph-name="T" unicode="T" 
d="M256 140v103h103v-103h-103zM256 268v103h103v-103h-103zM256 396v103h103v-103h-103zM256 524v103h103v-103h-103zM256 652v103h103v-103h-103zM256 780v103h103v-103h-103zM0 908v103h103v-103h-103zM128 908v103h103v-103h-103zM256 908v103h103v-103h-103zM384 908
v103h103v-103h-103zM512 908v103h103v-103h-103z" />
    <glyph glyph-name="U" unicode="U" 
d="M128 140v103h103v-103h-103zM256 140v103h103v-103h-103zM384 140v103h103v-103h-103zM0 268v103h103v-103h-103zM512 268v103h103v-103h-103zM0 396v103h103v-103h-103zM512 396v103h103v-103h-103zM0 524v103h103v-103h-103zM512 524v103h103v-103h-103zM0 652v103h103
v-103h-103zM512 652v103h103v-103h-103zM0 780v103h103v-103h-103zM512 780v103h103v-103h-103zM0 908v103h103v-103h-103zM512 908v103h103v-103h-103z" />
    <glyph glyph-name="V" unicode="V" 
d="M256 140v103h103v-103h-103zM128 268v103h103v-103h-103zM384 268v103h103v-103h-103zM0 396v103h103v-103h-103zM512 396v103h103v-103h-103zM0 524v103h103v-103h-103zM512 524v103h103v-103h-103zM0 652v103h103v-103h-103zM512 652v103h103v-103h-103zM0 780v103h103
v-103h-103zM512 780v103h103v-103h-103zM0 908v103h103v-103h-103zM512 908v103h103v-103h-103z" />
    <glyph glyph-name="W" unicode="W" horiz-adv-x="998" 
d="M128 140v103h103v-103h-103zM256 140v103h103v-103h-103zM512 140v103h103v-103h-103zM640 140v103h103v-103h-103zM0 268v103h103v-103h-103zM384 268v103h103v-103h-103zM768 268v103h103v-103h-103zM0 396v103h103v-103h-103zM384 396v103h103v-103h-103zM768 396v103
h103v-103h-103zM0 524v103h103v-103h-103zM384 524v103h103v-103h-103zM768 524v103h103v-103h-103zM0 652v103h103v-103h-103zM384 652v103h103v-103h-103zM768 652v103h103v-103h-103zM0 780v103h103v-103h-103zM384 780v103h103v-103h-103zM768 780v103h103v-103h-103z
M0 908v103h103v-103h-103zM384 908v103h103v-103h-103zM768 908v103h103v-103h-103z" />
    <glyph glyph-name="X" unicode="X" 
d="M0 140v103h103v-103h-103zM512 140v103h103v-103h-103zM0 268v103h103v-103h-103zM512 268v103h103v-103h-103zM128 396v103h103v-103h-103zM384 396v103h103v-103h-103zM256 524v103h103v-103h-103zM128 652v103h103v-103h-103zM384 652v103h103v-103h-103zM0 780v103
h103v-103h-103zM512 780v103h103v-103h-103zM0 908v103h103v-103h-103zM512 908v103h103v-103h-103z" />
    <glyph glyph-name="Y" unicode="Y" 
d="M256 140v103h103v-103h-103zM256 268v103h103v-103h-103zM256 396v103h103v-103h-103zM128 524v103h103v-103h-103zM384 524v103h103v-103h-103zM0 652v103h103v-103h-103zM512 652v103h103v-103h-103zM0 780v103h103v-103h-103zM512 780v103h103v-103h-103zM0 908v103
h103v-103h-103zM512 908v103h103v-103h-103z" />
    <glyph glyph-name="Z" unicode="Z" 
d="M0 140v103h103v-103h-103zM128 140v103h103v-103h-103zM256 140v103h103v-103h-103zM384 140v103h103v-103h-103zM512 140v103h103v-103h-103zM0 268v103h103v-103h-103zM128 396v103h103v-103h-103zM256 524v103h103v-103h-103zM384 652v103h103v-103h-103zM512 780v103
h103v-103h-103zM0 908v103h103v-103h-103zM128 908v103h103v-103h-103zM256 908v103h103v-103h-103zM384 908v103h103v-103h-103zM512 908v103h103v-103h-103z" />
    <glyph glyph-name="bracketleft" unicode="[" horiz-adv-x="358" 
d="M0 140v103h103v-103h-103zM128 140v103h103v-103h-103zM0 268v103h103v-103h-103zM0 396v103h103v-103h-103zM0 524v103h103v-103h-103zM0 652v103h103v-103h-103zM0 780v103h103v-103h-103zM0 908v103h103v-103h-103zM128 908v103h103v-103h-103z" />
    <glyph glyph-name="backslash" unicode="\" 
d="M512 140v103h103v-103h-103zM512 268v103h103v-103h-103zM384 396v103h103v-103h-103zM256 524v103h103v-103h-103zM128 652v103h103v-103h-103zM0 780v103h103v-103h-103zM0 908v103h103v-103h-103z" />
    <glyph glyph-name="bracketright" unicode="]" horiz-adv-x="358" 
d="M0 140v103h103v-103h-103zM128 140v103h103v-103h-103zM128 268v103h103v-103h-103zM128 396v103h103v-103h-103zM128 524v103h103v-103h-103zM128 652v103h103v-103h-103zM128 780v103h103v-103h-103zM0 908v103h103v-103h-103zM128 908v103h103v-103h-103z" />
    <glyph glyph-name="asciicircum" unicode="^" horiz-adv-x="486" 
d="M0 780v103h103v-103h-103zM256 780v103h103v-103h-103zM128 908v103h103v-103h-103z" />
    <glyph glyph-name="underscore" unicode="_" 
d="M0 140v103h103v-103h-103zM128 140v103h103v-103h-103zM256 140v103h103v-103h-103zM384 140v103h103v-103h-103zM512 140v103h103v-103h-103z" />
    <glyph glyph-name="grave" unicode="`" horiz-adv-x="256" 
d="M64 768v128h-64v128h128v-256h-64z" />
    <glyph glyph-name="a" unicode="a" 
d="M128 140v103h103v-103h-103zM256 140v103h103v-103h-103zM384 140v103h103v-103h-103zM512 140v103h103v-103h-103zM0 268v103h103v-103h-103zM512 268v103h103v-103h-103zM128 396v103h103v-103h-103zM256 396v103h103v-103h-103zM384 396v103h103v-103h-103zM512 396
v103h103v-103h-103zM512 524v103h103v-103h-103zM128 652v103h103v-103h-103zM256 652v103h103v-103h-103zM384 652v103h103v-103h-103z" />
    <glyph glyph-name="b" unicode="b" 
d="M0 140v103h103v-103h-103zM128 140v103h103v-103h-103zM256 140v103h103v-103h-103zM384 140v103h103v-103h-103zM0 268v103h103v-103h-103zM512 268v103h103v-103h-103zM0 396v103h103v-103h-103zM512 396v103h103v-103h-103zM0 524v103h103v-103h-103zM128 524v103h103
v-103h-103zM512 524v103h103v-103h-103zM0 652v103h103v-103h-103zM256 652v103h103v-103h-103zM384 652v103h103v-103h-103zM0 780v103h103v-103h-103zM0 908v103h103v-103h-103z" />
    <glyph glyph-name="c" unicode="c" horiz-adv-x="614" 
d="M128 140v103h103v-103h-103zM256 140v103h103v-103h-103zM384 140v103h103v-103h-103zM0 268v103h103v-103h-103zM0 396v103h103v-103h-103zM0 524v103h103v-103h-103zM128 652v103h103v-103h-103zM256 652v103h103v-103h-103zM384 652v103h103v-103h-103z" />
    <glyph glyph-name="d" unicode="d" 
d="M128 140v103h103v-103h-103zM256 140v103h103v-103h-103zM512 140v103h103v-103h-103zM0 268v103h103v-103h-103zM384 268v103h103v-103h-103zM512 268v103h103v-103h-103zM0 396v103h103v-103h-103zM512 396v103h103v-103h-103zM0 524v103h103v-103h-103zM512 524v103
h103v-103h-103zM128 652v103h103v-103h-103zM256 652v103h103v-103h-103zM384 652v103h103v-103h-103zM512 652v103h103v-103h-103zM512 780v103h103v-103h-103zM512 908v103h103v-103h-103z" />
    <glyph glyph-name="e" unicode="e" 
d="M128 140v103h103v-103h-103zM256 140v103h103v-103h-103zM384 140v103h103v-103h-103zM512 140v103h103v-103h-103zM0 268v103h103v-103h-103zM0 396v103h103v-103h-103zM128 396v103h103v-103h-103zM256 396v103h103v-103h-103zM384 396v103h103v-103h-103zM0 524v103
h103v-103h-103zM512 524v103h103v-103h-103zM128 652v103h103v-103h-103zM256 652v103h103v-103h-103zM384 652v103h103v-103h-103z" />
    <glyph glyph-name="f" unicode="f" horiz-adv-x="486" 
d="M128 140v103h103v-103h-103zM128 268v103h103v-103h-103zM128 396v103h103v-103h-103zM128 524v103h103v-103h-103zM0 652v103h103v-103h-103zM128 652v103h103v-103h-103zM256 652v103h103v-103h-103zM128 780v103h103v-103h-103zM256 908v103h103v-103h-103z" />
    <glyph glyph-name="g" unicode="g" 
d="M128 -115v103h103v-103h-103zM256 -115v103h103v-103h-103zM384 -115v103h103v-103h-103zM512 12v103h103v-103h-103zM128 140v103h103v-103h-103zM256 140v103h103v-103h-103zM512 140v103h103v-103h-103zM0 268v103h103v-103h-103zM384 268v103h103v-103h-103zM512 268
v103h103v-103h-103zM0 396v103h103v-103h-103zM512 396v103h103v-103h-103zM0 524v103h103v-103h-103zM512 524v103h103v-103h-103zM128 652v103h103v-103h-103zM256 652v103h103v-103h-103zM384 652v103h103v-103h-103zM512 652v103h103v-103h-103z" />
    <glyph glyph-name="h" unicode="h" 
d="M0 140v103h103v-103h-103zM512 140v103h103v-103h-103zM0 268v103h103v-103h-103zM512 268v103h103v-103h-103zM0 396v103h103v-103h-103zM512 396v103h103v-103h-103zM0 524v103h103v-103h-103zM128 524v103h103v-103h-103zM512 524v103h103v-103h-103zM0 652v103h103
v-103h-103zM256 652v103h103v-103h-103zM384 652v103h103v-103h-103zM0 780v103h103v-103h-103zM0 908v103h103v-103h-103z" />
    <glyph glyph-name="i" unicode="i" horiz-adv-x="230" 
d="M0 140v103h103v-103h-103zM0 268v103h103v-103h-103zM0 396v103h103v-103h-103zM0 524v103h103v-103h-103zM0 652v103h103v-103h-103zM0 908v103h103v-103h-103z" />
    <glyph glyph-name="j" unicode="j" horiz-adv-x="358" 
d="M0 -115v103h103v-103h-103zM127 12v103h103v-103h-103zM127 140v103h103v-103h-103zM127 268v103h103v-103h-103zM127 396v103h103v-103h-103zM127 524v103h103v-103h-103zM127 652v103h103v-103h-103zM127 908v103h103v-103h-103z" />
    <glyph glyph-name="k" unicode="k" horiz-adv-x="614" 
d="M0 140v103h103v-103h-103zM384 140v103h103v-103h-103zM0 268v103h103v-103h-103zM256 268v103h103v-103h-103zM0 396v103h103v-103h-103zM128 396v103h103v-103h-103zM0 524v103h103v-103h-103zM256 524v103h103v-103h-103zM0 652v103h103v-103h-103zM384 652v103h103
v-103h-103zM0 780v103h103v-103h-103zM0 908v103h103v-103h-103z" />
    <glyph glyph-name="l" unicode="l" horiz-adv-x="230" 
d="M0 140v103h103v-103h-103zM0 268v103h103v-103h-103zM0 396v103h103v-103h-103zM0 524v103h103v-103h-103zM0 652v103h103v-103h-103zM0 780v103h103v-103h-103zM0 908v103h103v-103h-103z" />
    <glyph glyph-name="m" unicode="m" horiz-adv-x="998" 
d="M0 140v103h103v-103h-103zM384 140v103h103v-103h-103zM768 140v103h103v-103h-103zM0 268v103h103v-103h-103zM384 268v103h103v-103h-103zM768 268v103h103v-103h-103zM0 396v103h103v-103h-103zM384 396v103h103v-103h-103zM768 396v103h103v-103h-103zM0 524v103h103
v-103h-103zM384 524v103h103v-103h-103zM768 524v103h103v-103h-103zM0 652v103h103v-103h-103zM128 652v103h103v-103h-103zM256 652v103h103v-103h-103zM512 652v103h103v-103h-103zM640 652v103h103v-103h-103z" />
    <glyph glyph-name="n" unicode="n" 
d="M0 140v103h103v-103h-103zM512 140v103h103v-103h-103zM0 268v103h103v-103h-103zM512 268v103h103v-103h-103zM0 396v103h103v-103h-103zM512 396v103h103v-103h-103zM0 524v103h103v-103h-103zM512 524v103h103v-103h-103zM0 652v103h103v-103h-103zM128 652v103h103
v-103h-103zM256 652v103h103v-103h-103zM384 652v103h103v-103h-103z" />
    <glyph glyph-name="o" unicode="o" 
d="M128 140v103h103v-103h-103zM256 140v103h103v-103h-103zM384 140v103h103v-103h-103zM0 268v103h103v-103h-103zM512 268v103h103v-103h-103zM0 396v103h103v-103h-103zM512 396v103h103v-103h-103zM0 524v103h103v-103h-103zM512 524v103h103v-103h-103zM128 652v103
h103v-103h-103zM256 652v103h103v-103h-103zM384 652v103h103v-103h-103z" />
    <glyph glyph-name="p" unicode="p" 
d="M0 -115v103h103v-103h-103zM0 12v103h103v-103h-103zM0 140v103h103v-103h-103zM256 140v103h103v-103h-103zM384 140v103h103v-103h-103zM0 268v103h103v-103h-103zM128 268v103h103v-103h-103zM512 268v103h103v-103h-103zM0 396v103h103v-103h-103zM512 396v103h103
v-103h-103zM0 524v103h103v-103h-103zM512 524v103h103v-103h-103zM0 652v103h103v-103h-103zM128 652v103h103v-103h-103zM256 652v103h103v-103h-103zM384 652v103h103v-103h-103z" />
    <glyph glyph-name="q" unicode="q" 
d="M512 -115v103h103v-103h-103zM512 12v103h103v-103h-103zM128 140v103h103v-103h-103zM256 140v103h103v-103h-103zM512 140v103h103v-103h-103zM0 268v103h103v-103h-103zM384 268v103h103v-103h-103zM512 268v103h103v-103h-103zM0 396v103h103v-103h-103zM512 396v103
h103v-103h-103zM0 524v103h103v-103h-103zM512 524v103h103v-103h-103zM128 652v103h103v-103h-103zM256 652v103h103v-103h-103zM384 652v103h103v-103h-103z" />
    <glyph glyph-name="r" unicode="r" horiz-adv-x="614" 
d="M0 140v103h103v-103h-103zM0 268v103h103v-103h-103zM0 396v103h103v-103h-103zM0 524v103h103v-103h-103zM128 524v103h103v-103h-103zM0 652v103h103v-103h-103zM256 652v103h103v-103h-103zM384 652v103h103v-103h-103z" />
    <glyph glyph-name="s" unicode="s" 
d="M0 140v103h103v-103h-103zM128 140v103h103v-103h-103zM256 140v103h103v-103h-103zM384 140v103h103v-103h-103zM512 268v103h103v-103h-103zM128 396v103h103v-103h-103zM256 396v103h103v-103h-103zM384 396v103h103v-103h-103zM0 524v103h103v-103h-103zM128 652v103
h103v-103h-103zM256 652v103h103v-103h-103zM384 652v103h103v-103h-103zM512 652v103h103v-103h-103z" />
    <glyph glyph-name="t" unicode="t" horiz-adv-x="614" 
d="M256 140v103h103v-103h-103zM384 140v103h103v-103h-103zM128 268v103h103v-103h-103zM128 396v103h103v-103h-103zM128 524v103h103v-103h-103zM0 652v103h103v-103h-103zM128 652v103h103v-103h-103zM256 652v103h103v-103h-103zM384 652v103h103v-103h-103zM128 780
v103h103v-103h-103z" />
    <glyph glyph-name="u" unicode="u" 
d="M128 140v103h103v-103h-103zM256 140v103h103v-103h-103zM384 140v103h103v-103h-103zM512 140v103h103v-103h-103zM0 268v103h103v-103h-103zM512 268v103h103v-103h-103zM0 396v103h103v-103h-103zM512 396v103h103v-103h-103zM0 524v103h103v-103h-103zM512 524v103
h103v-103h-103zM0 652v103h103v-103h-103zM512 652v103h103v-103h-103z" />
    <glyph glyph-name="v" unicode="v" 
d="M256 140v103h103v-103h-103zM128 268v103h103v-103h-103zM384 268v103h103v-103h-103zM0 396v103h103v-103h-103zM512 396v103h103v-103h-103zM0 524v103h103v-103h-103zM512 524v103h103v-103h-103zM0 652v103h103v-103h-103zM512 652v103h103v-103h-103z" />
    <glyph glyph-name="w" unicode="w" horiz-adv-x="998" 
d="M128 140v103h103v-103h-103zM256 140v103h103v-103h-103zM512 140v103h103v-103h-103zM640 140v103h103v-103h-103zM0 268v103h103v-103h-103zM384 268v103h103v-103h-103zM768 268v103h103v-103h-103zM0 396v103h103v-103h-103zM384 396v103h103v-103h-103zM768 396v103
h103v-103h-103zM0 524v103h103v-103h-103zM384 524v103h103v-103h-103zM768 524v103h103v-103h-103zM0 652v103h103v-103h-103zM768 652v103h103v-103h-103z" />
    <glyph glyph-name="x" unicode="x" 
d="M0 140v103h103v-103h-103zM512 140v103h103v-103h-103zM128 268v103h103v-103h-103zM384 268v103h103v-103h-103zM256 396v103h103v-103h-103zM128 524v103h103v-103h-103zM384 524v103h103v-103h-103zM0 652v103h103v-103h-103zM512 652v103h103v-103h-103z" />
    <glyph glyph-name="y" unicode="y" 
d="M128 -115v103h103v-103h-103zM256 -115v103h103v-103h-103zM384 -115v103h103v-103h-103zM512 12v103h103v-103h-103zM128 140v103h103v-103h-103zM256 140v103h103v-103h-103zM384 140v103h103v-103h-103zM512 140v103h103v-103h-103zM0 268v103h103v-103h-103zM512 268
v103h103v-103h-103zM0 396v103h103v-103h-103zM512 396v103h103v-103h-103zM0 524v103h103v-103h-103zM512 524v103h103v-103h-103zM0 652v103h103v-103h-103zM512 652v103h103v-103h-103z" />
    <glyph glyph-name="z" unicode="z" 
d="M0 140v103h103v-103h-103zM128 140v103h103v-103h-103zM256 140v103h103v-103h-103zM384 140v103h103v-103h-103zM512 140v103h103v-103h-103zM128 268v103h103v-103h-103zM256 396v103h103v-103h-103zM384 524v103h103v-103h-103zM0 652v103h103v-103h-103zM128 652v103
h103v-103h-103zM256 652v103h103v-103h-103zM384 652v103h103v-103h-103zM512 652v103h103v-103h-103z" />
    <glyph glyph-name="braceleft" unicode="{" horiz-adv-x="486" 
d="M256 -115v103h103v-103h-103zM128 12v103h103v-103h-103zM128 140v103h103v-103h-103zM128 268v103h103v-103h-103zM0 396v103h103v-103h-103zM128 524v103h103v-103h-103zM128 652v103h103v-103h-103zM128 780v103h103v-103h-103zM256 908v103h103v-103h-103z" />
    <glyph glyph-name="bar" unicode="|" horiz-adv-x="230" 
d="M0 -115v103h103v-103h-103zM0 12v103h103v-103h-103zM0 140v103h103v-103h-103zM0 268v103h103v-103h-103zM0 396v103h103v-103h-103zM0 524v103h103v-103h-103zM0 652v103h103v-103h-103zM0 780v103h103v-103h-103zM0 908v103h103v-103h-103z" />
    <glyph glyph-name="braceright" unicode="}" horiz-adv-x="486" 
d="M0 -115v103h103v-103h-103zM128 12v103h103v-103h-103zM128 140v103h103v-103h-103zM128 268v103h103v-103h-103zM256 396v103h103v-103h-103zM128 524v103h103v-103h-103zM128 652v103h103v-103h-103zM128 780v103h103v-103h-103zM0 908v103h103v-103h-103z" />
    <glyph glyph-name="asciitilde" unicode="~" horiz-adv-x="614" 
d="M0 396v103h103v-103h-103zM256 396v103h103v-103h-103zM128 524v103h103v-103h-103zM384 524v103h103v-103h-103z" />
    <glyph glyph-name="quoteleft" unicode="&#x2018;" horiz-adv-x="256" 
d="M64 768v128h-64v128h128v-256h-64z" />
    <glyph glyph-name="quoteright" unicode="&#x2019;" horiz-adv-x="256" 
d="M0 768v256h64v-128h64v-128h-128z" />
    <glyph glyph-name="quotedblleft" unicode="&#x201c;" horiz-adv-x="512" 
d="M64 768v128h-64v128h128v-256h-64zM320 768v128h-64v128h128v-256h-64z" />
    <glyph glyph-name="quotedblright" unicode="&#x201d;" horiz-adv-x="512" 
d="M0 768v256h64v-128h64v-128h-128zM256 768v256h64v-128h64v-128h-128z" />
  </font>
</defs>
</svg>
